Jump to content
Jambands.ca

New CM 4/20/84 SBD Yousendit Link


Marcust99
 Share

Recommended Posts

https://www.yousendit.com/transfer.php?action=download&ufid=Z01PcmxWaTE3bUNGa1E9PQ

Grateful Dead - April 20, 1984

Civic Center - Philadelphia, PA

Recording Info:

SBD -> Cassette Master -> Reel -> Dat (SV3800/48k) -> WAV

Transfer Info:

WAV -> Samplitude v7.02 Professional -> Cool Edit Pro v1.5 -> FLAC

(3 Discs Audio / 2 Discs FLAC)

All Transfers and Mastering By Charlie Miller

charliemiller87@earthlink.net

December 12, 2009

Notes:

-- Set 2 is seamless

-- This is a re-master of shnid=27775

-- Thanks to Joe B. Jones for his help with the pitch correction

Set 1:

d1t01 - Tuning

d1t02 - Feel Like A Stranger

d1t03 - Cold Rain And Snow

d1t04 - Beat It On Down The Line

d1t05 - Cumberland Blues

d1t06 - Little Red Rooster

d1t07 - Brown Eyed Women

d1t08 - My Brother Esau

d1t09 - It Must Have Been The Roses ->

d1t10 - Let It Grow

Set 2:

d2t01 - Scarlet Begonias ->

d2t02 - Fire On The Mountain ->

d2t03 - Samson And Delilah ->

d2t04 - Drums ->

d3t01 - Space ->

d3t02 - I Need A Miracle ->

d3t03 - Morning Dew ->

d3t04 - Around And Around ->

d3t05 - Johnny B. Goode

Encore:

d3t06 - Keep Your Day Job

SHNTOOL OUTPUT:

length expanded size cdr WAVE problems filename

1:15.63 13378220 B --- -- ----- gd84-04-20d1t01.wav

9:09.01 96845996 B --- -- ----- gd84-04-20d1t02.wav

8:03.24 85257692 B --- -- ----- gd84-04-20d1t03.wav

3:50.54 40699052 B --- -- ----- gd84-04-20d1t04.wav

6:17.60 66643964 B --- -- ----- gd84-04-20d1t05.wav

10:04.35 106627964 B --- -- ----- gd84-04-20d1t06.wav

5:06.22 54030188 B --- -- ----- gd84-04-20d1t07.wav

7:01.17 74304428 B --- -- ----- gd84-04-20d1t08.wav

5:46.30 61105004 B --- -- ----- gd84-04-20d1t09.wav

15:05.49 159757292 B --- -- ----- gd84-04-20d1t10.wav

12:18.47 130293788 B --- -- ----- gd84-04-20d2t01.wav

15:31.54 164355452 B --- -- ----- gd84-04-20d2t02.wav

7:51.67 83242028 B --- -- ----- gd84-04-20d2t03.wav

10:41.56 113204156 B --- -- ----- gd84-04-20d2t04.wav

11:12.51 118660796 B --- -- ----- gd84-04-20d3t01.wav

5:21.02 56629148 B --- -- ----- gd84-04-20d3t02.wav

10:15.62 108631868 B --- -- ----- gd84-04-20d3t03.wav

3:35.42 38024828 B --- -- ----- gd84-04-20d3t04.wav

4:33.70 48321884 B --- -- ----- gd84-04-20d3t05.wav

4:23.28 46459100 B --- -- ----- gd84-04-20d3t06.wav

157:27.09 1666472848 B (20 files)

ffp:

gd84-04-20d1t01.flac:4aa5faee6bf6a67641e3518c360fd45c

gd84-04-20d1t02.flac:b5c56db289bd73d412ae7660a21760d0

gd84-04-20d1t03.flac:33b12b6b12b769e8d2ebc0883f7c904e

gd84-04-20d1t04.flac:b1f40ac9ee3598554efa963e3b3b2f0e

gd84-04-20d1t05.flac:964628e1a4fb90071a621908b888aae7

gd84-04-20d1t06.flac:5eef6178ced16fe78d3cd3631a8a60c6

gd84-04-20d1t07.flac:f1998e37c03253fb4677cd48e9e65d56

gd84-04-20d1t08.flac:727274697a4f276a8fc598bfb08b027b

gd84-04-20d1t09.flac:81d17fa8e8c0f88b397c82c9e62d101d

gd84-04-20d1t10.flac:22424dbe3588f8a9aa96a4dba5b67c33

gd84-04-20d2t01.flac:b513c587f0e30d61be6ee36d55d44bee

gd84-04-20d2t02.flac:834ee12aeabdc8d0d66e708093d0bf1f

gd84-04-20d2t03.flac:2b9d688a50266e7ab60ee72955c08db3

gd84-04-20d2t04.flac:54c873a42600b5d94b44ef954ceadc83

gd84-04-20d3t01.flac:cf30253fd5ac0195b182f29cc47202a3

gd84-04-20d3t02.flac:67f5c8142339f931bcee7b852340d1bf

gd84-04-20d3t03.flac:b0b144221706bc64d125b31488499b14

gd84-04-20d3t04.flac:36b885d91a96e3435f6aaaf89e18f6fc

gd84-04-20d3t05.flac:3239b865c14288105b1289da1223e7b3

gd84-04-20d3t06.flac:ae7d1b2531be8a0e56b920ecf3743933

md5:

7ceac03c99fb2b064b17783b44944bdf *gd84-04-20d1t01.flac

a721d11319d210856dbc5f4db9320241 *gd84-04-20d1t02.flac

c9e9b39901908d8a45435c126963d854 *gd84-04-20d1t03.flac

8d9088e0ed4ae5e22cc6e3e923d1cac6 *gd84-04-20d1t04.flac

590545d4dd9d13b6f53cd8bb0a98ef39 *gd84-04-20d1t05.flac

0757c2d60634517b75f30bdcfe90e9cb *gd84-04-20d1t06.flac

7bc10d733ab55f95ac4f169ed3ffd495 *gd84-04-20d1t07.flac

599b60582674506d3fa2681370bc5196 *gd84-04-20d1t08.flac

69a2ab12f7fae5d620f2247259d51f41 *gd84-04-20d1t09.flac

724d61b5bc3e30ba4e0648d0e0053e29 *gd84-04-20d1t10.flac

dfe84436e1317fb4d2b3239189d04074 *gd84-04-20d2t01.flac

285ad533c15fa552a9528d6cc5b0fc30 *gd84-04-20d2t02.flac

9964d58ea797bc5025dbe47687e0cf3c *gd84-04-20d2t03.flac

3a6322a379f1594384b109fb383984a4 *gd84-04-20d2t04.flac

f86e1a679ccf7a0854ef2a835cc56565 *gd84-04-20d3t01.flac

3661958e30846b6dc66cf1bd2d4e0c9a *gd84-04-20d3t02.flac

6a405ffdc41644d5b3410c56683a7b08 *gd84-04-20d3t03.flac

89ffa9943394c20daa4e16dc12944003 *gd84-04-20d3t04.flac

2aea7c5d58b76753bd670bfb2c8a4dd1 *gd84-04-20d3t05.flac

52f1cf5b2cf3e3c07af112b2f6f4d9b7 *gd84-04-20d3t06.flac

Link to comment
Share on other sites

Join the conversation

You can post now and register later. If you have an account, sign in now to post with your account.

Guest
Reply to this topic...

×   Pasted as rich text.   Paste as plain text instead

  Only 75 emoji are allowed.

×   Your link has been automatically embedded.   Display as a link instead

×   Your previous content has been restored.   Clear editor

×   You cannot paste images directly. Upload or insert images from URL.

 Share

×
×
  • Create New...